FORUM UPP-ROHUL
Most Welcome All,

=SELAMAT DATANG DI UPP-ROHUL COMMUNITY=
=SILAKAN REGISTER BAGI YANG BELUM BISA LOG-IN=
=KAMI SENANG SEKALI JIKA ANDA MAU BERBAGI ILMU DAN PENGALAMAN BERSAMA KAMI DISINI=


=SALAM HANGAT=



BestRegard

Arie Bonuo™


AJANG BERBAGI DAN DISKUSI MAHASISWA UPP-ROKAN HULU
 
IndeksCalendarPencarianAnggotaPendaftaranLogin
"REMEMBER" JANGAN PERNAH ANDA BERNIAT KULIAH DI UPP-ROHUL, KALAU HANYA UNTUK MENCARI GELAR, TAPI BERNIATLAH, KALAU KULIAH DI UPP-ROHUL UNTUK MENCARI ILMU YANG BISA ANDA KEMBANGKAN KE ANAK CUCU ANDA KELAK " : SELAMAT DATANG DAN SELAMAT BERGABUNG DI FORUM UPP-ROHUL COMMUNITY : KAMI BAHAGIA SEKALI BILA ANDA MAU BERBAGI ILMU DAN PENGALAMAN ANDA BERSAMA KAMI : HARAPAN KITA BERSAMA, SEMOGA FORUM INI BISA BERKEMBANG DAN MAJU SELAMANYA " BestRegard " ARIE BONUO™
Pencarian
 
 

Display results as :
 
Rechercher Advanced Search

My Great Web page
SELAMAT DATANG Tamu, SELAMAT BERGABUNG DI UPP-ROHUL COMMUNITY

Latest Topics
Topic
Written by
DESKRIPSI TINGKAT KESULITAN SOAL ( C1, C2, C3, C4, C5, C6)
Download Quran in Word 2.2 untuk Ms Office Word 2003 - 2013
BAB 7 TUMBUHAN
BAB 6 FUNGI (JAMUR)
BAB 5 PROTISTA
BAB 4 MONERA
BAB 3 VIRUS
BAB II KEANEKARAGAMAN HAYATI
BAB I MENGENAL BIOLOGI SEBAGAI ILMU
Sunat untuk Kaum Hawa Menurut Hukum Islam










ARIE BONUO™
MUHAMMAD FATIH AL-AZHAR™
MUHAMMAD FATIH AL-AZHAR™
MUHAMMAD FATIH AL-AZHAR™
MUHAMMAD FATIH AL-AZHAR™
MUHAMMAD FATIH AL-AZHAR™
MUHAMMAD FATIH AL-AZHAR™
MUHAMMAD FATIH AL-AZHAR™
MUHAMMAD FATIH AL-AZHAR™
MASTER OF SCIENCE™

Share | 
 

 Battle Los Angeles-SKIDROW 2011

Topik sebelumnya Topik selanjutnya Go down 
PengirimMessage
ARIE BONUO™
®Site Owner UPP-ROHUL Community®




PostSubyek: Battle Los Angeles-SKIDROW 2011   Mon May 02, 2011 6:09 am

Battle Los Angeles-SKIDROW 2011

[You must be registered and logged in to see this image.]

Quote:
?INFO?
********************************************************************************************************************

Battle.Los Angeles 2011 TS XViD - IMAGiNE
********************************************************************************************************************

Ripper ...........: IMAGiNE IMDB Rating.......:6.8/10
Video Codec.......: XVID Release Date......:15/03/11
Audio Codec.......:MP3 Theatre Date......:11/03/11
Audio Bitrate.....:128 Runtime.......:1h 50mn
Subtitles.........:NIL Language..........:ENGLISH
Resolution...... 720 x 336 IMDb URL..........:http://www.imdb.com/title/tt1217613/


DETAILS:

Video
ID : 0
Format : MPEG-4 Visual
Format profile : Advanced Simple@L5
Format settings, BVOP : Yes
Format settings, QPel : No
Format settings, GMC : No warppoints
Format settings, Matrix : Default (MPEG)
Muxing mode : Packed bitstream
Codec ID : XVID
Codec ID/Hint : XviD
Duration : 1h 50mn
Bit rate : 1 636 Kbps
Width : 720 pixels
Height : 336 pixels
Display aspect ratio : 2.2
Frame rate : 25.000 fps
Resolution : 24 bits
Colorimetry : 4:2:0
Scan type : Progressive
Bits/(Pixel*Frame) : 0.271
Stream size : 1.26 GiB (92%)
Writing library : XviD 61

Audio
ID : 1
Format : MPEG Audio
Format version : Version 1
Format profile : Layer 3
Codec ID : 55
Codec ID/Hint : MP3
Duration : 1h 50mn
Bit rate mode : Constant
Bit rate : 128 Kbps
Channel(s) : 2 channels
Sampling rate : 44.1 KHz
Resolution : 16 bits
Stream size : 101 MiB (7%)
Alignment : Split accross interleaves
Interleave, duration : 40 ms (1.00 video frame)
Interleave, preload duration : 500 ms



[You must be registered and logged in to see this image.]

[You must be registered and logged in to see this image.]

[You must be registered and logged in to see this image.]

[You must be registered and logged in to see this image.]

[You must be registered and logged in to see this image.]

Code:

[You must be registered and logged in to see this link.] ... MAGiNE.avi

========================================================================================
BONUO CELL ELECTRONIC
[You must be registered and logged in to see this link.]
LOKASI : PASIR PENGARAYAN - ROKAN HULU
Hp : 081276302200
Kembali Ke Atas Go down
http://flasher.home-forum.com
 

Battle Los Angeles-SKIDROW 2011

Topik sebelumnya Topik selanjutnya Kembali Ke Atas 
Halaman 1 dari 1

 Similar topics

-
» KL Gangster (2011) DVDRip
» KAWASAKI NINJA 250 2011 MODIF
» Korede iinoda Eiga-Akatsuka Fujio (2011)
» CBR600 2011 MERAH SURABAYA
» WTS: Ninja 250 Hitam 2011 Mulus ky baru, Jakbar

Permissions in this forum:Anda tidak dapat menjawab topik
FORUM UPP-ROHUL :: === ENTERTAINMENT === :: Movie Mania / Video Clip-